extratorrent - A Fan Made Alternative Login   |   Register
Important Information
Registrations are open now
-------------------------------------

Please click here to register with Extratorrent2 to recieve latest updates, add bookmarks and to post comments.

Friends
Friends

1) ProxyFix

Extratorrent2 > Categories > Anime > Shimoneta to Iu Gainen ga Sonzai Shinai Taikutsu na Sekai English Subbed BD720p (10bit_HEVC_SmoodFlamez) torrent


Browse Anime torrents

Shimoneta to Iu Gainen ga Sonzai Shinai Taikutsu na Sekai English Subbed BD720p (10bit_HEVC_SmoodFlamez) torrent


Download torrent: Download Shimoneta to Iu Gainen ga Sonzai Shinai Taikutsu na Sekai English Subbed BD720p (10bit_HEVC_SmoodFlamez) torrent Magnet link Bookmark Torrent: Shimoneta to Iu Gainen ga Sonzai Shinai Taikutsu na Sekai English Subbed BD720p (10bit_HEVC_SmoodFlamez)   Shimoneta to Iu Gainen ga Sonzai Shinai Taikutsu na Sekai English Subbed BD720p (10bit_HEVC_SmoodFlamez) torrent
Info hash: C24E43820DD6D64AC2B9EEA05ECE694BC6CD7750
Category: Categories > Anime
Trackers:
View all torrent trackers >
Health:
 seeds: 3 ,  leechers: 4 |  Update >
Torrent language: Japanese Japanese
Total Size: 1.4 GB
Files List:
23    View torrent files >
Uploader:
smoodflamez
Torrent added: October 28, 2018, 4:31 am
Tags: Animation, Comedy
Users rating: ---, not rated. please login to rate.

Download Shimoneta to Iu Gainen ga Sonzai Shinai Taikutsu na Sekai English Subbed BD720p (10bit_HEVC_SmoodFlamez) torrent



Torrent Description


Title
Shimoneta: A Boring World Where the Concept of Dirty Jokes Doesn’t Exist

Source
SallySubs

Storyline

Tanukichi Okuma is roped into joining an obscene terrorist organization bent on the destruction of everything that his new school stands for, the most prestigious public morals school.

Details
Official Sites: Official Site [Japan]
Country: Japan
Language: Japanese
Release Date: 4 July 2015 (Japan)

MediaInfo
Video
ID : 1
Format : HEVC
Format/Info : High Efficiency Video Coding
Format profile : Main @Main
Codec ID : V_MPEGH/ISO/HEVC
Duration : 23 min 41 s
Width : 1 280 pixels
Height : 720 pixels
Display aspect ratio : 16:9
Frame rate mode : Constant
Frame rate : 23.976 (24000/1001) FPS
Color space : YUV
Chroma subsampling : 4:2:0
Bit depth : 10 bits

Audio
ID : 2
Format : Opus
Codec ID : A_OPUS
Duration : 23 min 41 s
Bit rate : 78.9 kb/s
Channel(s) : 2 channels
Channel layout : L R
Sampling rate : 44.1 kHz
Frame rate : 50.000 FPS (882 SPF)
Compression mode : Lossy
Delay relative to video : 9 ms
Stream size : 13.4 MiB (12%)
Title : Uncensored
Default : Yes
Forced : No

Text #1
ID : 3
Format : ASS
Codec ID : S_TEXT/ASS
Codec ID/Info : Advanced Sub Station Alpha
Duration : 23 min 37 s
Bit rate : 3 321 b/s
Count of elements : 3453
Compression mode : Lossless
Stream size : 575 KiB (0%)
Language : English

Screenshot



Download Shimoneta to Iu Gainen ga Sonzai Shinai Taikutsu na Sekai English Subbed BD720p (10bit_HEVC_SmoodFlamez) torrent


Related Torrents


Comments   (please login to add your comment!)


Home - Browse Torrents

Made with love by an Extratorrent Fan!